<?xml version="1.0" standalone="no"?>
<!DOCTYPE svg PUBLIC "-//W3C//DTD SVG 1.1//EN" "http://www.w3.org/Graphics/SVG/1.1/DTD/svg11.dtd" >
<svg>
<metadata>
Created by FontForge 20110222 at Tue Apr 10 01:26:40 2012
 By www-data
Copyright(c) 2012 M+ FONTS PROJECT
</metadata>
<defs>
<font id="mplus-2p-light" horiz-adv-x="610" >
  <font-face 
    font-family="M+ 2p light"
    font-weight="200"
    font-stretch="normal"
    units-per-em="1000"
    panose-1="2 11 4 3 2 2 3 2 2 7"
    ascent="860"
    descent="-140"
    x-height="520"
    cap-height="730"
    bbox="-31 -230 1003 1002"
    underline-thickness="50"
    underline-position="-100"
    unicode-range="U+0020-2122"
  />
    <missing-glyph />
    <glyph glyph-name="space" unicode=" " horiz-adv-x="283" 
 />
    <glyph glyph-name="exclam" unicode="!" horiz-adv-x="332" 
d="M138 730h57l-5 -533h-47zM140 0v117h53v-117h-53z" />
    <glyph glyph-name="quotedbl" unicode="&#x22;" horiz-adv-x="366" 
d="M73 770h50l-5 -233h-40zM243 770h50l-5 -233h-40z" />
    <glyph glyph-name="numbersign" unicode="#" horiz-adv-x="671" 
d="M53 203v42h127l46 260h-121v42h128l33 183h46l-32 -183h173l33 183h46l-32 -183h118v-42h-125l-46 -260h119v-42h-127l-36 -203h-47l36 203h-173l-36 -203h-47l36 203h-119zM446 505h-173l-46 -260h173z" />
    <glyph glyph-name="dollar" unicode="$" horiz-adv-x="596" 
d="M312 672v-278q116 -25 166 -72t50 -127q0 -81 -56 -128.5t-160 -51.5v-100h-42v100q-109 4 -212 55l14 41q96 -49 198 -53v299q-108 24 -156.5 70t-48.5 120q0 76 53 120t152 48v100h42v-100q97 -3 199 -40l-13 -42q-93 36 -186 39zM312 58q81 4 124.5 39.5t43.5 97.5
t-39 98t-129 56v-291zM270 672q-78 -3 -118 -35t-40 -90q0 -57 37 -91.5t121 -53.5v270z" />
    <glyph glyph-name="percent" unicode="%" horiz-adv-x="829" 
d="M597 730h53l-418 -730h-52zM625 327q-54 0 -84 -38.5t-30 -110.5t30 -110t84 -38t83.5 38t29.5 110t-29.5 110.5t-83.5 38.5zM205 700q-54 0 -84 -38t-30 -110t30 -110.5t84 -38.5t83.5 38.5t29.5 110.5t-29.5 110t-83.5 38zM625 -10q-77 0 -119.5 49.5t-42.5 138.5
t42.5 139t119.5 50q76 0 118.5 -50t42.5 -139t-42.5 -138.5t-118.5 -49.5zM205 363q-77 0 -119.5 50t-42.5 139t42.5 138.5t119.5 49.5q76 0 118.5 -49.5t42.5 -138.5t-42.5 -139t-118.5 -50z" />
    <glyph glyph-name="ampersand" unicode="&#x26;" horiz-adv-x="694" 
d="M306 740q82 0 127 -35t45 -97q0 -55 -34 -99.5t-127 -107.5l205 -223q44 78 61 186l48 -2q-21 -131 -77 -219l132 -143h-61l-98 105q-95 -115 -247 -115q-110 0 -168.5 47t-58.5 133q0 58 44.5 112.5t150.5 124.5l-14 15q-56 61 -78.5 102t-22.5 83q0 60 47 96.5
t126 36.5zM287 433q88 60 116 95.5t28 78.5q0 44 -32.5 68t-92.5 24q-57 0 -90.5 -25.5t-33.5 -66.5q0 -34 19 -68t82 -102zM497 139l-220 236q-94 -61 -134 -108.5t-40 -94.5q0 -67 46.5 -103.5t131.5 -36.5q136 0 216 107z" />
    <glyph glyph-name="quotesingle" unicode="'" horiz-adv-x="209" 
d="M78 770h53l-5 -233h-43z" />
    <glyph glyph-name="parenleft" unicode="(" horiz-adv-x="361" 
d="M73 322q0 272 187 448h53q-192 -177 -192 -448q0 -270 192 -447h-53q-187 176 -187 447z" />
    <glyph glyph-name="parenright" unicode=")" horiz-adv-x="361" 
d="M288 322q0 -271 -187 -447h-53q192 177 192 447q0 271 -192 448h53q187 -176 187 -448z" />
    <glyph glyph-name="asterisk" unicode="*" horiz-adv-x="507" 
d="M275 770l-3 -182l157 93l21 -36l-159 -89l159 -89l-21 -36l-157 93l3 -182h-42l2 182l-156 -93l-21 36l159 89l-159 89l21 36l156 -93l-2 182h42z" />
    <glyph glyph-name="plus" unicode="+" horiz-adv-x="732" 
d="M388 580v-269h262v-42h-262v-269h-43v269h-262v42h262v269h43z" />
    <glyph glyph-name="comma" unicode="," horiz-adv-x="273" 
d="M140 123h61l-90 -233h-48z" />
    <glyph glyph-name="hyphen" unicode="-" horiz-adv-x="449" 
d="M83 269v42h283v-42h-283z" />
    <glyph glyph-name="period" unicode="." horiz-adv-x="252" 
d="M98 0v130h57v-130h-57z" />
    <glyph glyph-name="slash" unicode="/" horiz-adv-x="484" 
d="M431 730l-343 -770h-50l344 770h49z" />
    <glyph glyph-name="zero" unicode="0" 
d="M305 740q257 0 257 -375t-257 -375t-257 375t257 375zM305 33q207 0 207 332t-207 332t-207 -332t207 -332z" />
    <glyph glyph-name="one" unicode="1" 
d="M318 0v668h-2l-205 -194l-23 39l230 217h50v-730h-50z" />
    <glyph glyph-name="two" unicode="2" 
d="M295 696q-48 0 -104 -19.5t-101 -52.5l-18 39q46 35 108 56t120 21q102 0 159 -53.5t57 -149.5q0 -97 -78.5 -204.5t-285.5 -287.5v-2h370v-43h-440v43q222 190 302.5 296t80.5 194q0 78 -44 120.5t-126 42.5z" />
    <glyph glyph-name="three" unicode="3" 
d="M300 697q-95 0 -188 -57l-15 40q99 60 208 60q101 0 159 -44t58 -119q0 -138 -168 -178v-2q183 -30 183 -187q0 -107 -65.5 -163.5t-189.5 -56.5q-112 0 -209 63l16 41q90 -61 191 -61q102 0 154.5 45.5t52.5 133.5q0 82 -63 121.5t-196 39.5h-43v44h43q117 0 180.5 40.5
t63.5 112.5q0 60 -44.5 93.5t-127.5 33.5z" />
    <glyph glyph-name="four" unicode="4" 
d="M380 223v431h-2l-310 -429v-2h312zM429 223h133v-43h-133v-180h-49v180h-365v43l365 507h49v-507z" />
    <glyph glyph-name="five" unicode="5" 
d="M498 687h-325l-19 -274h2q63 40 142 40q110 0 170 -57t60 -161q0 -119 -65.5 -182t-190.5 -63q-101 0 -187 52l16 41q83 -50 171 -50q101 0 153.5 51t52.5 151q0 86 -47.5 131t-138.5 45q-82 0 -143 -48h-46l24 367h371v-43z" />
    <glyph glyph-name="six" unicode="6" 
d="M307 444q-83 0 -142 -57t-59 -137q0 -102 54 -159.5t147 -57.5q94 0 147.5 57.5t53.5 159.5q0 88 -55 141t-146 53zM307 -10q-116 0 -184 72t-68 200q0 204 95.5 331t262.5 147l8 -43q-124 -16 -202.5 -96t-104.5 -214l2 -1q70 99 199 99q110 0 176.5 -64.5t66.5 -170.5
q0 -119 -68 -189.5t-183 -70.5z" />
    <glyph glyph-name="seven" unicode="7" 
d="M77 730h460v-43q-178 -293 -300 -687h-52q123 389 301 685v2h-409v43z" />
    <glyph glyph-name="eight" unicode="8" 
d="M305 740q106 0 167.5 -46.5t61.5 -123.5q0 -62 -40.5 -108t-114.5 -69v-2q183 -48 183 -198q0 -94 -68.5 -148.5t-188.5 -54.5t-188.5 54.5t-68.5 148.5q0 71 46.5 121t136.5 74v2q-74 23 -114.5 70t-40.5 110q0 77 61.5 123.5t167.5 46.5zM305 410q85 15 133.5 57
t48.5 100q0 60 -49 95.5t-133 35.5t-132 -35.5t-48 -95.5q0 -59 47.5 -101t132.5 -56zM303 368q-207 -36 -207 -173q0 -76 56 -119.5t153 -43.5q96 0 151.5 44t55.5 119q0 138 -209 173z" />
    <glyph glyph-name="nine" unicode="9" 
d="M180 33q261 35 316 312h-2q-69 -100 -199 -100q-110 0 -176.5 65.5t-66.5 174.5q0 116 68 185.5t183 69.5q117 0 184.5 -71t67.5 -196q0 -210 -96.5 -336t-270.5 -147zM303 697q-94 0 -147.5 -56.5t-53.5 -155.5q0 -91 55 -145t146 -54q83 0 142 58t59 141
q0 99 -53.5 155.5t-147.5 56.5z" />
    <glyph glyph-name="colon" unicode=":" horiz-adv-x="332" 
d="M138 383v130h57v-130h-57zM138 0v130h57v-130h-57z" />
    <glyph glyph-name="semicolon" unicode=";" horiz-adv-x="353" 
d="M83 -110l77 233h61l-90 -233h-48zM150 383v130h56v-130h-56z" />
    <glyph glyph-name="less" unicode="&#x3c;" horiz-adv-x="659" 
d="M561 510l-459 -219v-2l459 -219v-47l-493 240v54l493 240v-47z" />
    <glyph glyph-name="equal" unicode="=" horiz-adv-x="752" 
d="M93 382v41h567v-41h-567zM93 157v41h567v-41h-567z" />
    <glyph glyph-name="greater" unicode="&#x3e;" horiz-adv-x="659" 
d="M98 510v47l493 -240v-54l-493 -240v47l460 219v2z" />
    <glyph glyph-name="question" unicode="?" horiz-adv-x="608" 
d="M488 580q0 55 -50 85.5t-145 30.5q-103 0 -214 -35l-11 44q109 35 230 35q115 0 178.5 -42t63.5 -115q0 -36 -10 -65t-33 -52.5t-39.5 -36.5t-48.5 -34q-34 -22 -51.5 -35.5t-40 -38t-32.5 -54.5t-10 -69h-50q0 44 12 79.5t37 63t44 42t53 37.5q30 20 45 31.5t35 31.5
t28.5 43.5t8.5 53.5zM223 0v117h54v-117h-54z" />
    <glyph glyph-name="at" unicode="@" horiz-adv-x="822" 
d="M411 628q165 0 267 -101.5t102 -266.5q0 -98 -55 -153t-147 -55q-51 0 -75 24q-21 21 -21 58h-2q-54 -82 -148 -82q-66 0 -104 49q-49 63 -23 167q26 100 81.5 155t128.5 55q51 0 84 -36q20 -22 28 -53h1l22 78h52l-70 -266q-19 -75 -1 -97q13 -16 47 -16
q75 0 117.5 45.5t42.5 126.5q0 148 -90 238.5t-237 90.5q-145 0 -236 -91.5t-91 -237.5t91 -237.5t236 -91.5q111 0 195 59l22 -34q-93 -64 -217 -64q-161 0 -264.5 102.5t-103.5 265.5q0 162 103.5 265t264.5 103zM338 97q59 0 98.5 42t63.5 131q23 83 -12 130
q-25 34 -72 34q-55 0 -98.5 -45t-65.5 -125q-23 -82 14 -131q27 -36 72 -36z" />
    <glyph glyph-name="A" unicode="A" horiz-adv-x="682" 
d="M38 0l273 730h60l274 -730h-54l-84 231h-333l-84 -231h-52zM190 273h302l-150 413h-2z" />
    <glyph glyph-name="B" unicode="B" horiz-adv-x="587" 
d="M88 730h143q142 0 209.5 -41.5t67.5 -126.5q0 -61 -39 -103t-110 -58v-2q186 -30 186 -184q0 -108 -74.5 -161.5t-229.5 -53.5h-153v730zM138 417h93q229 0 229 140q0 27 -8.5 48t-30.5 41t-68.5 30.5t-114.5 10.5h-100v-270zM138 375v-332h110q127 0 187 42.5t60 132.5
q0 80 -63.5 118.5t-200.5 38.5h-93z" />
    <glyph glyph-name="C" unicode="C" horiz-adv-x="691" 
d="M403 697q-142 0 -225.5 -90t-83.5 -242q0 -151 85 -241.5t224 -90.5q109 0 201 60l19 -39q-95 -64 -223 -64q-162 0 -259.5 102t-97.5 273q0 173 96.5 274t260.5 101q128 0 223 -64l-19 -39q-90 60 -201 60z" />
    <glyph glyph-name="D" unicode="D" horiz-adv-x="674" 
d="M138 687v-644h113q332 0 332 332q0 312 -332 312h-113zM631 375q0 -183 -98.5 -279t-284.5 -96h-160v730h160q189 0 286 -90.5t97 -264.5z" />
    <glyph glyph-name="E" unicode="E" horiz-adv-x="579" 
d="M138 687v-270h343v-42h-343v-332h363v-43h-413v730h413v-43h-363z" />
    <glyph glyph-name="F" unicode="F" horiz-adv-x="564" 
d="M491 687h-353v-280h333v-42h-333v-365h-50v730h403v-43z" />
    <glyph glyph-name="G" unicode="G" horiz-adv-x="741" 
d="M415 697q-150 0 -235.5 -89t-85.5 -243q0 -153 87 -242.5t237 -89.5q111 0 197 39v303h-277v42h325v-373q-109 -54 -248 -54q-169 0 -270.5 102t-101.5 273t99.5 273t268.5 102q129 0 226 -60l-19 -38q-91 55 -203 55z" />
    <glyph glyph-name="H" unicode="H" horiz-adv-x="696" 
d="M138 730v-313h420v313h50v-730h-50v375h-420v-375h-50v730h50z" />
    <glyph glyph-name="I" unicode="I" horiz-adv-x="299" 
d="M123 0v730h53v-730h-53z" />
    <glyph glyph-name="J" unicode="J" horiz-adv-x="519" 
d="M441 730v-457q0 -283 -260 -283q-86 0 -153 33l14 43q69 -33 139 -33q209 0 209 247v450h51z" />
    <glyph glyph-name="K" unicode="K" horiz-adv-x="612" 
d="M138 730v-331h2l361 331h64l-384 -350l394 -380h-64l-371 361h-2v-361h-50v730h50z" />
    <glyph glyph-name="L" unicode="L" horiz-adv-x="581" 
d="M140 730v-686h378v-44h-430v730h52z" />
    <glyph glyph-name="M" unicode="M" horiz-adv-x="816" 
d="M48 0l92 730h66l201 -673h2l201 673h66l92 -730h-50l-80 663h-2l-198 -663h-61l-198 663h-2l-80 -663h-49z" />
    <glyph glyph-name="N" unicode="N" horiz-adv-x="702" 
d="M88 0v730h57l418 -654h2v654h50v-730h-58l-418 654h-2v-654h-49z" />
    <glyph glyph-name="O" unicode="O" horiz-adv-x="792" 
d="M396 -10q-159 0 -256 103t-97 272t97 272t256 103t256.5 -103t97.5 -272t-97.5 -272t-256.5 -103zM396 33q136 0 219.5 91t83.5 241t-83.5 241t-219.5 91t-219 -91t-83 -241t83 -241t219 -91z" />
    <glyph glyph-name="P" unicode="P" horiz-adv-x="586" 
d="M88 730h167q154 0 223.5 -48t69.5 -154q0 -113 -69 -168t-211 -55h-130v-305h-50v730zM138 347h127q120 0 177 43.5t57 134.5q0 81 -52.5 121.5t-188.5 40.5h-120v-340z" />
    <glyph glyph-name="Q" unicode="Q" horiz-adv-x="781" 
d="M396 697q-136 0 -219 -91t-83 -241t83 -241t219 -91t219.5 91t83.5 241t-83.5 241t-219.5 91zM396 -10q-159 0 -256 103t-97 272t97 272t256 103t256.5 -103t97.5 -272q0 -128 -60.5 -220t-165.5 -128v-2q173 -35 259 -165h-60q-53 74 -130 107t-197 33z" />
    <glyph glyph-name="R" unicode="R" horiz-adv-x="606" 
d="M88 0v730h153q297 0 297 -175q0 -164 -170 -200v-2q28 -12 49 -43.5t50 -97.5l91 -212h-53l-87 206q-17 40 -28.5 61t-24.5 37.5t-31 22t-38 8t-58 2.5h-100v-337h-50zM138 379h100q133 0 192 42t59 131q0 68 -57 101.5t-187 33.5h-107v-308z" />
    <glyph glyph-name="S" unicode="S" horiz-adv-x="562" 
d="M281 697q-77 0 -119.5 -33.5t-42.5 -93.5q0 -110 163 -160q116 -35 167 -88t51 -137q0 -94 -57.5 -144.5t-164.5 -50.5q-122 0 -215 67l18 40q86 -64 197 -64q84 0 128 39t44 113q0 67 -39.5 108.5t-132.5 70.5q-208 62 -208 206q0 77 55.5 123.5t155.5 46.5
q112 0 205 -48l-14 -40q-84 45 -191 45z" />
    <glyph glyph-name="T" unicode="T" horiz-adv-x="652" 
d="M63 730h527v-44h-239v-686h-50v686h-238v44z" />
    <glyph glyph-name="U" unicode="U" horiz-adv-x="672" 
d="M337 34q208 0 208 243v453h50v-452q0 -140 -67 -214t-192 -74t-191.5 73.5t-66.5 214.5v452h51v-453q0 -243 208 -243z" />
    <glyph glyph-name="V" unicode="V" horiz-adv-x="682" 
d="M92 730l249 -682h2l249 682h53l-274 -730h-60l-273 730h54z" />
    <glyph glyph-name="W" unicode="W" horiz-adv-x="942" 
d="M99 730l165 -679h2l172 679h68l172 -679h2l165 679h50l-185 -730h-66l-172 679h-2l-171 -679h-67l-184 730h51z" />
    <glyph glyph-name="X" unicode="X" horiz-adv-x="636" 
d="M111 730l207 -324h2l206 324h57l-234 -361l239 -369h-59l-211 332h-2l-210 -332h-58l239 369l-234 361h58z" />
    <glyph glyph-name="Y" unicode="Y" horiz-adv-x="656" 
d="M92 730l236 -368h2l235 368h58l-269 -412v-318h-52v318l-269 412h59z" />
    <glyph glyph-name="Z" unicode="Z" horiz-adv-x="629" 
d="M78 730h473v-43l-414 -642v-2h414v-43h-473v43l414 642v2h-414v43z" />
    <glyph glyph-name="bracketleft" unicode="[" horiz-adv-x="456" 
d="M165 730v-815h203v-40h-250v895h250v-40h-203z" />
    <glyph glyph-name="backslash" unicode="\" horiz-adv-x="484" 
d="M53 730h50l343 -770h-49z" />
    <glyph glyph-name="bracketright" unicode="]" horiz-adv-x="456" 
d="M291 730h-203v40h250v-895h-250v40h203v815z" />
    <glyph glyph-name="asciicircum" unicode="^" horiz-adv-x="632" 
d="M43 280l242 450h63l242 -450h-53l-220 417h-1l-220 -417h-53z" />
    <glyph glyph-name="underscore" unicode="_" horiz-adv-x="569" 
d="M-2 -125v40h573v-40h-573z" />
    <glyph glyph-name="grave" unicode="`" horiz-adv-x="247" 
d="M83 810l122 -233h-46l-141 233h65z" />
    <glyph glyph-name="a" unicode="a" horiz-adv-x="537" 
d="M263 530q104 0 148 -44.5t44 -152.5v-193q0 -70 15 -140h-46q-9 46 -11 103h-2q-27 -52 -78.5 -82.5t-117.5 -30.5q-74 0 -118 40.5t-44 109.5q0 88 77.5 137.5t220.5 49.5h57v5q0 89 -31.5 123.5t-113.5 34.5q-97 0 -175 -46l-12 38q84 48 187 48zM99 142
q0 -52 33.5 -83t90.5 -31q75 0 130 55.5t55 138.5v67h-57q-121 0 -186.5 -39t-65.5 -108z" />
    <glyph glyph-name="b" unicode="b" horiz-adv-x="567" 
d="M310 -10q-128 0 -179 111h-2l-1 -101h-45v750h47v-330h2q53 110 178 110q98 0 154 -71t56 -199t-56.5 -199t-153.5 -71zM474 260q0 109 -46.5 169.5t-126.5 60.5q-77 0 -124 -59.5t-47 -162.5v-16q0 -106 47.5 -164t123.5 -58q80 0 126.5 60.5t46.5 169.5z" />
    <glyph glyph-name="c" unicode="c" horiz-adv-x="514" 
d="M300 489q-98 0 -153.5 -60.5t-55.5 -168.5q0 -104 58 -167t151 -63q69 0 132 33l14 -38q-70 -35 -148 -35q-114 0 -184.5 74t-70.5 196q0 126 68 198t187 72q78 0 148 -35l-14 -39q-63 33 -132 33z" />
    <glyph glyph-name="d" unicode="d" horiz-adv-x="567" 
d="M94 260q0 -109 46 -169.5t126 -60.5q76 0 124 58t48 164v16q0 103 -47.5 162.5t-124.5 59.5q-80 0 -126 -60.5t-46 -169.5zM48 260q0 128 56 199t154 71q125 0 178 -110h2v330h47v-750h-45l-1 101h-2q-51 -111 -179 -111q-97 0 -153.5 71t-56.5 199z" />
    <glyph glyph-name="e" unicode="e" horiz-adv-x="544" 
d="M90 243q1 -100 55.5 -157t145.5 -57q83 0 157 42l15 -37q-81 -44 -175 -44q-112 0 -178.5 72.5t-66.5 197.5q0 126 63 198t172 72q104 0 161 -69t57 -196v-22h-406zM91 283h359q-2 101 -46.5 154.5t-125.5 53.5q-86 0 -135 -54.5t-52 -153.5z" />
    <glyph glyph-name="f" unicode="f" horiz-adv-x="514" 
d="M58 500h143v78q0 162 154 162q44 0 86 -15l-11 -39q-34 14 -72 14q-59 0 -84 -28t-25 -94v-78h189v-40h-189v-460h-48v460h-143v40z" />
    <glyph glyph-name="g" unicode="g" horiz-adv-x="586" 
d="M451 520h45v-173q0 -82 -55 -128t-155 -46q-71 0 -121 26q-25 -25 -25 -49q0 -30 34.5 -47t131.5 -17q117 0 172 -35.5t55 -108.5q0 -80 -67 -126t-190 -46q-105 0 -166.5 40.5t-61.5 107.5q0 44 27.5 87t70.5 68q-50 24 -50 73q0 37 36 75q-56 47 -56 127
q0 81 53.5 131.5t137.5 50.5q123 0 182 -75h2v65zM196 57q-43 -17 -72 -56t-29 -79q0 -51 49.5 -82.5t133.5 -31.5q97 0 152 35t55 95q0 50 -39.5 80t-145.5 30q-62 0 -104 9zM124 346q0 -64 42.5 -100.5t118.5 -36.5q74 0 117.5 36.5t43.5 100.5q0 67 -46 106.5t-123 39.5
q-68 0 -110.5 -40.5t-42.5 -105.5z" />
    <glyph glyph-name="h" unicode="h" horiz-adv-x="562" 
d="M130 750v-339h2q29 55 76.5 87t104.5 32q91 0 134 -53t43 -170v-307h-46v303q0 102 -32.5 144t-110.5 42q-66 0 -118.5 -63t-52.5 -149v-277h-47v750h47z" />
    <glyph glyph-name="i" unicode="i" horiz-adv-x="294" 
d="M123 640v110h49v-110h-49zM123 0v520h49v-520h-49z" />
    <glyph glyph-name="j" unicode="j" horiz-adv-x="334" 
d="M211 520v-520q0 -135 -47.5 -182.5t-183.5 -47.5l-2 41q113 0 149 36t36 151v522h48zM163 640v110h48v-110h-48z" />
    <glyph glyph-name="k" unicode="k" horiz-adv-x="544" 
d="M130 750v-457h2l295 227h64l-323 -248l328 -272h-63l-301 251h-2v-251h-47v750h47z" />
    <glyph glyph-name="l" unicode="l" horiz-adv-x="294" 
d="M123 0v750h49v-750h-49z" />
    <glyph glyph-name="m" unicode="m" horiz-adv-x="791" 
d="M123 520l1 -101h2q24 53 61 82t81 29q108 0 141 -109h2q22 51 62.5 80t91.5 29q78 0 115.5 -48t37.5 -152v-330h-46v320q0 93 -27 131.5t-89 38.5q-55 0 -95 -51.5t-40 -128.5v-310h-46v320q0 93 -26.5 131.5t-88.5 38.5q-50 0 -92.5 -60.5t-42.5 -146.5v-283h-47v520h45
z" />
    <glyph glyph-name="n" unicode="n" horiz-adv-x="557" 
d="M296 489q-66 0 -118.5 -63t-52.5 -149v-277h-47v520h45l1 -110h2q27 55 75.5 87.5t106.5 32.5q91 0 134 -53t43 -170v-307h-46v303q0 102 -32.5 144t-110.5 42z" />
    <glyph glyph-name="o" unicode="o" horiz-adv-x="566" 
d="M283 490q-89 0 -141 -61.5t-52 -168.5t52 -168.5t141 -61.5t141 61.5t52 168.5t-52 168.5t-141 61.5zM283 -10q-110 0 -175 73t-65 197t65 197t175 73t175 -73t65 -197t-65 -197t-175 -73z" />
    <glyph glyph-name="p" unicode="p" horiz-adv-x="562" 
d="M305 -10q-127 0 -178 108h-2v-318h-47v740h45l1 -101h2q51 111 179 111q98 0 154 -71t56 -199q0 -127 -57 -198.5t-153 -71.5zM469 260q0 109 -46.5 169.5t-126.5 60.5q-77 0 -124 -59.5t-47 -162.5v-16q0 -105 48 -163.5t123 -58.5q80 0 126.5 60.5t46.5 169.5z" />
    <glyph glyph-name="q" unicode="q" horiz-adv-x="562" 
d="M94 260q0 -109 46 -169.5t126 -60.5q76 0 124 58.5t48 163.5v16q0 103 -47 162.5t-125 59.5q-80 0 -126 -60.5t-46 -169.5zM48 260q0 128 56 199t154 71q128 0 179 -111h2l1 101h45v-740h-47v318h-2q-51 -108 -178 -108q-96 0 -153 71.5t-57 198.5z" />
    <glyph glyph-name="r" unicode="r" horiz-adv-x="442" 
d="M124 520v-123h2q40 63 107 98t152 35v-41q-112 0 -186 -63.5t-74 -158.5v-267h-47v520h46z" />
    <glyph glyph-name="s" unicode="s" horiz-adv-x="489" 
d="M241 530q91 0 174 -40l-13 -39q-78 39 -161 39q-64 0 -100 -25.5t-36 -69.5q0 -40 29.5 -65t109.5 -40q99 -18 143 -55.5t44 -101.5q0 -66 -50.5 -104.5t-139.5 -38.5q-98 0 -183 50l14 38q79 -48 169 -48q67 0 105 27.5t38 75.5q0 46 -33.5 72.5t-112.5 41.5
q-96 17 -138 52t-42 96t49 98t134 37z" />
    <glyph glyph-name="t" unicode="t" horiz-adv-x="504" 
d="M220 690v-190h206v-40h-206v-307q0 -75 22 -99t81 -24q47 0 85 15l10 -38q-48 -17 -100 -17q-81 0 -113 34.5t-32 122.5v313h-120v40h120v190h47z" />
    <glyph glyph-name="u" unicode="u" horiz-adv-x="547" 
d="M119 520v-327q0 -89 30 -125.5t102 -36.5q64 0 118 62.5t54 149.5v277h47v-520h-45l-1 110h-2q-27 -55 -75.5 -87.5t-106.5 -32.5q-87 0 -127 47t-40 153v330h46z" />
    <glyph glyph-name="v" unicode="v" horiz-adv-x="549" 
d="M90 520l184 -489h2l185 489h50l-203 -520h-67l-203 520h52z" />
    <glyph glyph-name="w" unicode="w" horiz-adv-x="806" 
d="M99 520l137 -477h2l132 477h67l132 -477h2l137 477h50l-157 -520h-65l-132 474h-2l-132 -474h-65l-157 520h51z" />
    <glyph glyph-name="x" unicode="x" horiz-adv-x="542" 
d="M114 520l157 -223h2l157 223h55l-185 -256l190 -264h-56l-162 231h-2l-163 -231h-54l190 264l-185 256h56z" />
    <glyph glyph-name="y" unicode="y" horiz-adv-x="557" 
d="M98 520l189 -463h2l180 463h51l-208 -519q-52 -132 -111 -181.5t-156 -49.5l-2 41q80 0 128.5 40t92.5 149l-218 520h52z" />
    <glyph glyph-name="z" unicode="z" horiz-adv-x="539" 
d="M78 520h383v-40l-324 -438v-2h324v-40h-383v40l324 438v2h-324v40z" />
    <glyph glyph-name="braceleft" unicode="{" horiz-adv-x="502" 
d="M410 730h-74q-52 0 -75 -23t-23 -92v-147q0 -109 -72 -144v-2q72 -35 72 -145v-147q0 -69 23 -92t75 -23h74v-40h-90q-68 0 -98.5 34.5t-30.5 110.5v155q0 60 -21.5 93.5t-59.5 33.5h-47v41h47q38 0 59.5 33.5t21.5 93.5v155q0 76 30.5 110.5t98.5 34.5h90v-40z" />
    <glyph glyph-name="bar" unicode="|" horiz-adv-x="322" 
d="M138 -220v1030h47v-1030h-47z" />
    <glyph glyph-name="braceright" unicode="}" horiz-adv-x="502" 
d="M93 730v40h90q68 0 98 -34.5t30 -110.5v-155q0 -60 22 -93.5t60 -33.5h47v-41h-47q-38 0 -60 -33.5t-22 -93.5v-155q0 -76 -30 -110.5t-98 -34.5h-90v40h73q52 0 75.5 23t23.5 92v147q0 110 71 145v2q-71 35 -71 144v147q0 69 -23.5 92t-75.5 23h-73z" />
    <glyph glyph-name="asciitilde" unicode="~" horiz-adv-x="686" 
d="M331 283q-108 49 -154 49q-40 0 -58 -24t-18 -80h-43q0 148 114 148q61 0 183 -56q108 -49 154 -49q76 0 76 95h43q0 -74 -32 -106t-82 -32q-63 0 -183 55z" />
    <glyph glyph-name="uni00A0" unicode="&#xa0;" horiz-adv-x="283" 
 />
    <glyph glyph-name="exclamdown" unicode="&#xa1;" horiz-adv-x="292" 
d="M123 323h47l5 -543h-57zM120 403v117h53v-117h-53z" />
    <glyph glyph-name="cent" unicode="&#xa2;" horiz-adv-x="539" 
d="M278 528v162h40v-160q77 -1 149 -36l-10 -39q-68 34 -139 34v-459q75 1 139 34l15 -38q-74 -35 -154 -36v-170h-40v172q-106 11 -170.5 83t-64.5 185q0 117 62.5 187.5t172.5 80.5zM278 32v455q-88 -11 -137.5 -70t-49.5 -157q0 -94 51 -155.5t136 -72.5z" />
    <glyph glyph-name="sterling" unicode="&#xa3;" horiz-adv-x="642" 
d="M164 45v-2h401v-43h-487v43q45 3 79 50.5t34 123.5v130h-94v40h94v158q0 93 55.5 144t158.5 51q66 0 127 -26l-12 -42q-51 24 -111 24q-168 0 -168 -155v-154h263v-40h-263v-130q0 -58 -21 -104t-56 -68z" />
    <glyph glyph-name="currency" unicode="&#xa4;" horiz-adv-x="663" 
d="M572 634l28 -29l-96 -96q53 -63 53 -144t-53 -144l96 -96l-28 -29l-96 96q-61 -52 -144 -52q-84 0 -145 52l-96 -96l-28 29l96 96q-52 61 -52 144t52 144l-96 96l28 29l96 -96q61 52 145 52q83 0 144 -52zM332 183q75 0 128 53.5t53 128.5t-53 128.5t-128 53.5
t-128.5 -53.5t-53.5 -128.5t53.5 -128.5t128.5 -53.5z" />
    <glyph glyph-name="yen" unicode="&#xa5;" horiz-adv-x="666" 
d="M85 163v37h222v110h-222v37h203l-250 383h59l236 -368h2l235 368h58l-250 -383h203v-37h-222v-110h222v-37h-222v-163h-52v163h-222z" />
    <glyph glyph-name="brokenbar" unicode="&#xa6;" horiz-adv-x="322" 
d="M138 -140v360h47v-360h-47zM138 370v360h47v-360h-47z" />
    <glyph glyph-name="section" unicode="&#xa7;" horiz-adv-x="511" 
d="M70 582q0 69 51.5 113.5t134.5 44.5q92 0 178 -45l-14 -41q-79 43 -161 43q-65 0 -103.5 -31.5t-38.5 -83.5q0 -47 30.5 -76.5t110.5 -47.5q100 -22 145 -63t45 -110q0 -98 -90 -142q82 -42 82 -135q0 -70 -50.5 -114t-133.5 -44q-93 0 -179 45l14 41q79 -43 161 -43
q66 0 104 31.5t38 83.5q0 47 -30.5 76.5t-110.5 47.5q-100 22 -145 63t-45 110q0 98 90 142q-83 43 -83 135zM197 429q-43 -14 -67.5 -45.5t-24.5 -72.5q0 -54 35.5 -85.5t119.5 -49.5q17 -3 54 -15q43 14 67.5 45.5t24.5 72.5q0 54 -35.5 85.5t-119.5 49.5q-17 3 -54 15z
" />
    <glyph glyph-name="dieresis" unicode="&#xa8;" horiz-adv-x="422" 
d="M288 610v123h47v-123h-47zM88 610v123h47v-123h-47z" />
    <glyph glyph-name="copyright" unicode="&#xa9;" horiz-adv-x="819" 
d="M567 545l-17 -34q-54 34 -120 34q-84 0 -132 -48t-48 -132q0 -83 49 -131.5t131 -48.5q66 0 120 34l17 -34q-59 -37 -140 -37q-102 0 -162.5 59t-60.5 158q0 101 60 159t163 58q81 0 140 -37zM410 35q136 0 233 96.5t97 233.5t-97 233.5t-233 96.5t-233 -96.5t-97 -233.5
t97 -233.5t233 -96.5zM410 -2q-152 0 -259.5 107.5t-107.5 259.5t107.5 259.5t259.5 107.5t259 -107.5t107 -259.5t-107.5 -259.5t-258.5 -107.5z" />
    <glyph glyph-name="ordfeminine" unicode="&#xaa;" horiz-adv-x="644" 
d="M93 213v35h459v-35h-459zM426 544h-42q-94 0 -145.5 -30t-51.5 -83q0 -40 26 -63.5t70 -23.5q62 0 102.5 40t40.5 101v59zM144 429q0 71 62.5 111t177.5 40h42v2q0 69 -23.5 94.5t-86.5 25.5q-78 0 -140 -36l-11 35q69 39 152 39q84 0 119.5 -36t35.5 -123v-153
q0 -56 12 -112h-44q-9 39 -10 66h-1q-49 -75 -154 -75q-60 0 -95.5 33t-35.5 89z" />
    <glyph glyph-name="guillemotleft" unicode="&#xab;" horiz-adv-x="716" 
d="M618 481l-230 -190v-2l230 -190v-49l-263 220v40l263 220v-49zM331 481l-229 -190v-2l229 -190v-49l-263 220v40l263 220v-49z" />
    <glyph glyph-name="logicalnot" unicode="&#xac;" horiz-adv-x="649" 
d="M63 382v41h493v-266h-45v225h-448z" />
    <glyph glyph-name="uni00AD" unicode="&#xad;" horiz-adv-x="459" 
d="M83 268v44h293v-44h-293z" />
    <glyph glyph-name="registered" unicode="&#xae;" horiz-adv-x="819" 
d="M375 540h-64v-163h62q81 0 116.5 21t35.5 65q0 40 -36 58.5t-114 18.5zM311 341v-188h-45v424h107q197 0 197 -111q0 -90 -110 -110v-1q18 -7 31 -23.5t33 -56.5l59 -122h-48l-54 115q-26 52 -42.5 62.5t-66.5 10.5h-61zM410 -2q-152 0 -259.5 107.5t-107.5 259.5
t107.5 259.5t259.5 107.5t259 -107.5t107 -259.5t-107 -259.5t-259 -107.5zM410 35q136 0 233 96.5t97 233.5t-97 233.5t-233 96.5t-233 -96.5t-97 -233.5t97 -233.5t233 -96.5z" />
    <glyph glyph-name="macron" unicode="&#xaf;" horiz-adv-x="459" 
d="M63 657v40h333v-40h-333z" />
    <glyph glyph-name="degree" unicode="&#xb0;" horiz-adv-x="389" 
d="M48 593q0 61 43 104t104 43t103.5 -43t42.5 -104t-42.5 -103.5t-103.5 -42.5t-104 42.5t-43 103.5zM88 593q0 -44 31.5 -75t75.5 -31t75 31t31 75t-31 75.5t-75 31.5t-75.5 -31.5t-31.5 -75.5z" />
    <glyph glyph-name="plusminus" unicode="&#xb1;" horiz-adv-x="752" 
d="M93 -40v42h567v-42h-567zM398 650v-262h262v-42h-262v-263h-43v263h-262v42h262v262h43z" />
    <glyph glyph-name="uni00B2" unicode="&#xb2;" horiz-adv-x="375" 
d="M276 611q0 43 -24 66t-69 23q-63 0 -122 -44l-16 32q28 21 67.5 34.5t73.5 13.5q62 0 96.5 -32.5t34.5 -89.5q0 -55 -43.5 -114.5t-165.5 -170.5v-1h214v-36h-269v36q135 119 179 176.5t44 106.5z" />
    <glyph glyph-name="uni00B3" unicode="&#xb3;" horiz-adv-x="375" 
d="M174 286q-69 0 -130 39l15 32q55 -35 114 -35q117 0 117 99q0 89 -151 89h-23v35h23q69 0 106 22.5t37 63.5q0 33 -25.5 51t-73.5 18q-57 0 -112 -33l-13 32q63 37 129 37q63 0 99 -27t36 -73q0 -77 -88 -105v-1q96 -21 96 -111q0 -57 -36 -95t-120 -38z" />
    <glyph glyph-name="acute" unicode="&#xb4;" horiz-adv-x="241" 
d="M93 590h-50l117 163h63z" />
    <glyph glyph-name="uni00B5" unicode="&#xb5;" horiz-adv-x="552" 
d="M428 520h47v-520h-45l-1 93h-2q-27 -47 -75 -75t-102 -28q-92 0 -126 60v-270h-46v740h46v-327q0 -89 30 -125.5t102 -36.5q69 0 120.5 59.5t51.5 142.5v287z" />
    <glyph glyph-name="paragraph" unicode="&#xb6;" horiz-adv-x="606" 
d="M268 270q-95 0 -162.5 67.5t-67.5 162.5t67.5 162.5t162.5 67.5h250v-870h-45v828h-160v-828h-45v410z" />
    <glyph glyph-name="periodcentered" unicode="&#xb7;" horiz-adv-x="252" 
d="M98 225v130h57v-130h-57z" />
    <glyph glyph-name="cedilla" unicode="&#xb8;" horiz-adv-x="416" 
d="M247 0h50q41 -48 41 -103q0 -48 -39 -82.5t-131 -34.5q-65 0 -120 25l10 39q48 -24 107 -24q127 0 127 86q0 49 -45 94z" />
    <glyph glyph-name="uni00B9" unicode="&#xb9;" horiz-adv-x="375" 
d="M196 680l-116 -112l-18 33l135 129h42v-438h-42v388h-1z" />
    <glyph glyph-name="ordmasculine" unicode="&#xba;" horiz-adv-x="644" 
d="M93 213v35h459v-35h-459zM129 524q0 100 52 158t141 58t141.5 -58t52.5 -158t-52.5 -158t-141.5 -58t-141 58t-52 158zM322 346q69 0 108.5 47t39.5 131t-39.5 131t-108.5 47t-108.5 -47t-39.5 -131t39.5 -131t108.5 -47z" />
    <glyph glyph-name="guillemotright" unicode="&#xbb;" horiz-adv-x="715" 
d="M98 481v49l263 -220v-40l-263 -220v49l230 190v2zM385 481v49l263 -220v-40l-263 -220v49l229 190v2z" />
    <glyph glyph-name="onequarter" unicode="&#xbc;" horiz-adv-x="810" 
d="M163 680l-116 -112l-19 33l136 129h42v-438h-42v388h-1zM708 730l-517 -730h-48l517 730h48zM702 106v-106h-39v106h-221v36l221 296h39v-296h73v-36h-73zM663 142v238h-1l-176 -237v-1h177z" />
    <glyph glyph-name="onehalf" unicode="&#xbd;" horiz-adv-x="810" 
d="M724 319q0 43 -24 66t-69 23q-62 0 -121 -44l-17 32q28 21 68 34.5t74 13.5q61 0 95.5 -33t34.5 -90q0 -55 -43.5 -114t-164.5 -170v-1h213v-36h-269v36q135 119 179 176.5t44 106.5zM163 680l-116 -112l-19 33l136 129h42v-438h-42v388h-1zM675 730l-517 -730h-48
l517 730h48z" />
    <glyph glyph-name="threequarters" unicode="&#xbe;" horiz-adv-x="810" 
d="M231 530q97 -21 97 -111q0 -57 -36 -95t-120 -38q-70 0 -131 39l16 32q55 -35 113 -35q118 0 118 99q0 89 -151 89h-24v35h24q69 0 106 22.5t37 63.5q0 33 -25.5 51t-73.5 18q-57 0 -112 -33l-14 32q63 37 130 37q63 0 99 -27t36 -73q0 -77 -89 -105v-1zM715 730
l-517 -730h-48l517 730h48zM702 106v-106h-39v106h-221v36l221 296h39v-296h73v-36h-73zM663 142v238h-1l-176 -237v-1h177z" />
    <glyph glyph-name="questiondown" unicode="&#xbf;" horiz-adv-x="608" 
d="M331 403v117h54v-117h-54zM383 322q0 -37 -9 -69t-21 -53t-34.5 -43t-38 -33.5t-43.5 -30.5q-31 -21 -45.5 -32.5t-34.5 -32.5t-28.5 -44.5t-8.5 -53.5q0 -55 50 -85.5t145 -30.5q103 0 214 35l11 -44q-109 -35 -230 -35q-115 0 -178.5 42t-63.5 115q0 36 10 65t33 53.5
t39 37t49 35.5t50.5 37t40.5 39t33 56.5t10 71.5h50z" />
    <glyph glyph-name="Agrave" unicode="&#xc0;" horiz-adv-x="682" 
d="M267 953l116 -163h-50l-130 163h64zM38 0l273 730h60l274 -730h-54l-84 231h-333l-84 -231h-52zM190 273h302l-150 413h-2z" />
    <glyph glyph-name="Aacute" unicode="&#xc1;" horiz-adv-x="682" 
d="M416 953h63l-130 -163h-50zM38 0l273 730h60l274 -730h-54l-84 231h-333l-84 -231h-52zM190 273h302l-150 413h-2z" />
    <glyph glyph-name="Acircumflex" unicode="&#xc2;" horiz-adv-x="682" 
d="M340 929l-118 -139h-59l143 163h70l144 -163h-59l-119 139h-2zM38 0l273 730h60l274 -730h-54l-84 231h-333l-84 -231h-52zM190 273h302l-150 413h-2z" />
    <glyph glyph-name="Atilde" unicode="&#xc3;" horiz-adv-x="682" 
d="M475 920h41q0 -115 -73 -115q-42 0 -110 47q-56 39 -86 39q-39 0 -39 -86h-42q0 125 74 125q43 0 109 -46q57 -40 87 -40q39 0 39 76zM38 0l273 730h60l274 -730h-54l-84 231h-333l-84 -231h-52zM190 273h302l-150 413h-2z" />
    <glyph glyph-name="Adieresis" unicode="&#xc4;" horiz-adv-x="682" 
d="M418 810v123h47v-123h-47zM218 810v123h47v-123h-47zM38 0l273 730h60l274 -730h-54l-84 231h-333l-84 -231h-52zM190 273h302l-150 413h-2z" />
    <glyph glyph-name="Aring" unicode="&#xc5;" horiz-adv-x="682" 
d="M341 968q-35 0 -59 -24t-24 -59t24 -59t59 -24t59.5 24.5t24.5 58.5t-24.5 58.5t-59.5 24.5zM38 0l273 730h60l274 -730h-54l-84 231h-333l-84 -231h-52zM458 885q0 -48 -34.5 -82.5t-82.5 -34.5t-82 34.5t-34 82.5t34 82.5t82 34.5t82.5 -34.5t34.5 -82.5zM190 273h302
l-150 413h-2z" />
    <glyph glyph-name="AE" unicode="&#xc6;" horiz-adv-x="837" 
d="M311 730h449v-43h-305v-270h285v-42h-285v-332h305v-43h-354v231h-233l-84 -231h-51zM188 273h218v414h-67z" />
    <glyph glyph-name="Ccedilla" unicode="&#xc7;" horiz-adv-x="691" 
d="M403 697q-142 0 -225.5 -90t-83.5 -242q0 -151 85 -241.5t224 -90.5q109 0 201 60l19 -39q-79 -53 -184 -62q35 -45 35 -95q0 -48 -39 -82.5t-131 -34.5q-65 0 -120 25l9 39q48 -24 107 -24q127 0 127 86q0 44 -35 84q-159 2 -254 104t-95 271q0 173 96.5 274t260.5 101
q128 0 223 -64l-19 -39q-90 60 -201 60z" />
    <glyph glyph-name="Egrave" unicode="&#xc8;" horiz-adv-x="579" 
d="M253 953l117 -163h-50l-130 163h63zM138 687v-270h343v-42h-343v-332h363v-43h-413v730h413v-43h-363z" />
    <glyph glyph-name="Eacute" unicode="&#xc9;" horiz-adv-x="579" 
d="M276 790h-50l117 163h63zM138 687v-270h343v-42h-343v-332h363v-43h-413v730h413v-43h-363z" />
    <glyph glyph-name="Ecircumflex" unicode="&#xca;" horiz-adv-x="579" 
d="M297 929l-118 -139h-59l143 163h70l143 -163h-59l-118 139h-2zM138 687v-270h343v-42h-343v-332h363v-43h-413v730h413v-43h-363z" />
    <glyph glyph-name="Edieresis" unicode="&#xcb;" horiz-adv-x="579" 
d="M375 810v123h46v-123h-46zM175 810v123h46v-123h-46zM138 687v-270h343v-42h-343v-332h363v-43h-413v730h413v-43h-363z" />
    <glyph glyph-name="Igrave" unicode="&#xcc;" horiz-adv-x="300" 
d="M60 953l117 -163h-50l-130 163h63zM124 0v730h53v-730h-53z" />
    <glyph glyph-name="Iacute" unicode="&#xcd;" horiz-adv-x="300" 
d="M173 790h-50l117 163h63zM123 0v730h53v-730h-53z" />
    <glyph glyph-name="Icircumflex" unicode="&#xce;" horiz-adv-x="298" 
d="M148 929l-118 -139h-59l143 163h70l144 -163h-59l-119 139h-2zM123 0v730h53v-730h-53z" />
    <glyph glyph-name="Idieresis" unicode="&#xcf;" horiz-adv-x="300" 
d="M227 810v123h47v-123h-47zM27 810v123h47v-123h-47zM124 0v730h53v-730h-53z" />
    <glyph glyph-name="Eth" unicode="&#xd0;" horiz-adv-x="745" 
d="M38 362v42h121v326h160q189 0 286 -90.5t97 -264.5q0 -183 -98.5 -279t-284.5 -96h-160v362h-121zM654 375q0 312 -332 312h-113v-283h199v-42h-199v-319h113q332 0 332 332z" />
    <glyph glyph-name="Ntilde" unicode="&#xd1;" horiz-adv-x="702" 
d="M359 884q57 -40 87 -40q39 0 39 76h41q0 -115 -73 -115q-42 0 -110 47q-56 39 -86 39q-39 0 -39 -86h-42q0 125 74 125q43 0 109 -46zM88 0v730h57l418 -654h2v654h50v-730h-58l-418 654h-2v-654h-49z" />
    <glyph glyph-name="Ograve" unicode="&#xd2;" horiz-adv-x="792" 
d="M322 953l116 -163h-50l-130 163h64zM396 -10q-159 0 -256 103t-97 272t97 272t256 103t256.5 -103t97.5 -272t-97.5 -272t-256.5 -103zM396 33q136 0 219.5 91t83.5 241t-83.5 241t-219.5 91t-219 -91t-83 -241t83 -241t219 -91z" />
    <glyph glyph-name="Oacute" unicode="&#xd3;" horiz-adv-x="792" 
d="M404 790h-50l117 163h63zM396 -10q-159 0 -256 103t-97 272t97 272t256 103t256.5 -103t97.5 -272t-97.5 -272t-256.5 -103zM396 33q136 0 219.5 91t83.5 241t-83.5 241t-219.5 91t-219 -91t-83 -241t83 -241t219 -91z" />
    <glyph glyph-name="Ocircumflex" unicode="&#xd4;" horiz-adv-x="792" 
d="M395 929l-118 -139h-59l143 163h70l144 -163h-59l-119 139h-2zM396 -10q-159 0 -256 103t-97 272t97 272t256 103t256.5 -103t97.5 -272t-97.5 -272t-256.5 -103zM396 33q136 0 219.5 91t83.5 241t-83.5 241t-219.5 91t-219 -91t-83 -241t83 -241t219 -91z" />
    <glyph glyph-name="Otilde" unicode="&#xd5;" horiz-adv-x="792" 
d="M295 930q43 0 109 -46q57 -40 86 -40q40 0 40 76h41q0 -115 -73 -115q-42 0 -110 47q-56 39 -86 39q-39 0 -39 -86h-42q0 125 74 125zM396 -10q-159 0 -256 103t-97 272t97 272t256 103t256.5 -103t97.5 -272t-97.5 -272t-256.5 -103zM396 33q136 0 219.5 91t83.5 241
t-83.5 241t-219.5 91t-219 -91t-83 -241t83 -241t219 -91z" />
    <glyph glyph-name="Odieresis" unicode="&#xd6;" horiz-adv-x="792" 
d="M473 810v123h47v-123h-47zM273 810v123h47v-123h-47zM396 -10q-159 0 -256 103t-97 272t97 272t256 103t256.5 -103t97.5 -272t-97.5 -272t-256.5 -103zM396 33q136 0 219.5 91t83.5 241t-83.5 241t-219.5 91t-219 -91t-83 -241t83 -241t219 -91z" />
    <glyph glyph-name="multiply" unicode="&#xd7;" horiz-adv-x="594" 
d="M547 73l-32 -32l-218 217l-217 -217l-32 32l217 217l-217 217l32 32l217 -217l218 217l32 -32l-218 -217z" />
    <glyph glyph-name="Oslash" unicode="&#xd8;" horiz-adv-x="802" 
d="M48 365q0 169 97 272t256 103q121 0 207 -60l55 73l36 -26l-56 -76q112 -104 112 -286q0 -169 -97.5 -272t-256.5 -103q-121 0 -207 60l-55 -73l-36 26l56 76q-111 103 -111 286zM222 88q75 -55 179 -55q136 0 219.5 91t83.5 241q0 156 -90 248zM188 117l392 525
q-75 55 -179 55q-136 0 -219 -91t-83 -241q0 -157 89 -248z" />
    <glyph glyph-name="Ugrave" unicode="&#xd9;" horiz-adv-x="672" 
d="M292 953l116 -163h-50l-130 163h64zM337 34q208 0 208 243v453h50v-452q0 -140 -67 -214t-192 -74t-191.5 73.5t-66.5 214.5v452h51v-453q0 -243 208 -243z" />
    <glyph glyph-name="Uacute" unicode="&#xda;" horiz-adv-x="672" 
d="M314 790h-50l117 163h63zM337 34q208 0 208 243v453h50v-452q0 -140 -67 -214t-192 -74t-191.5 73.5t-66.5 214.5v452h51v-453q0 -243 208 -243z" />
    <glyph glyph-name="Ucircumflex" unicode="&#xdb;" horiz-adv-x="672" 
d="M335 929l-118 -139h-59l143 163h70l144 -163h-59l-119 139h-2zM337 34q208 0 208 243v453h50v-452q0 -140 -67 -214t-192 -74t-191.5 73.5t-66.5 214.5v452h51v-453q0 -243 208 -243z" />
    <glyph glyph-name="Udieresis" unicode="&#xdc;" horiz-adv-x="672" 
d="M413 810v123h47v-123h-47zM213 810v123h47v-123h-47zM337 34q208 0 208 243v453h50v-452q0 -140 -67 -214t-192 -74t-191.5 73.5t-66.5 214.5v452h51v-453q0 -243 208 -243z" />
    <glyph glyph-name="Yacute" unicode="&#xdd;" horiz-adv-x="656" 
d="M306 790h-50l117 163h63zM92 730l236 -368h2l235 368h58l-269 -412v-318h-52v318l-269 412h59z" />
    <glyph glyph-name="Thorn" unicode="&#xde;" horiz-adv-x="596" 
d="M138 180v-180h-50v730h50v-125h117q154 0 223.5 -48t69.5 -154q0 -113 -69 -168t-211 -55h-130zM138 222h127q120 0 177 43.5t57 134.5q0 81 -52.5 121.5t-188.5 40.5h-120v-340z" />
    <glyph glyph-name="germandbls" unicode="&#xdf;" horiz-adv-x="582" 
d="M374 412q0 -10 26 -37t57 -56.5t57 -74t26 -86.5q0 -82 -48 -125t-140 -43q-70 0 -153 23l6 43q79 -22 143 -22q142 0 142 129q0 35 -26 74.5t-58 68.5t-58 59t-26 47q0 18 31 54t62.5 80t31.5 82q0 90 -152 90q-92 0 -127 -36t-35 -132v-550h-50v549q0 115 47.5 163
t162.5 48q202 0 202 -128q0 -34 -19 -72t-41.5 -64t-41.5 -50t-19 -34z" />
    <glyph glyph-name="agrave" unicode="&#xe0;" horiz-adv-x="537" 
d="M200 753l117 -163h-50l-130 163h63zM263 530q104 0 148 -44.5t44 -152.5v-193q0 -70 15 -140h-46q-9 46 -11 103h-2q-27 -52 -78.5 -82.5t-117.5 -30.5q-74 0 -118 40.5t-44 109.5q0 88 77.5 137.5t220.5 49.5h57v5q0 89 -31.5 123.5t-113.5 34.5q-97 0 -175 -46l-12 38
q84 48 187 48zM99 142q0 -52 33.5 -83t90.5 -31q75 0 130 55.5t55 138.5v67h-57q-121 0 -186.5 -39t-65.5 -108z" />
    <glyph glyph-name="aacute" unicode="&#xe1;" horiz-adv-x="537" 
d="M349 753h64l-130 -163h-50zM263 530q104 0 148 -44.5t44 -152.5v-193q0 -70 15 -140h-46q-9 46 -11 103h-2q-27 -52 -78.5 -82.5t-117.5 -30.5q-74 0 -118 40.5t-44 109.5q0 88 77.5 137.5t220.5 49.5h57v5q0 89 -31.5 123.5t-113.5 34.5q-97 0 -175 -46l-12 38
q84 48 187 48zM99 142q0 -52 33.5 -83t90.5 -31q75 0 130 55.5t55 138.5v67h-57q-121 0 -186.5 -39t-65.5 -108z" />
    <glyph glyph-name="acircumflex" unicode="&#xe2;" horiz-adv-x="537" 
d="M274 729l-119 -139h-59l144 163h70l143 -163h-59l-118 139h-2zM263 530q104 0 148 -44.5t44 -152.5v-193q0 -70 15 -140h-46q-9 46 -11 103h-2q-27 -52 -78.5 -82.5t-117.5 -30.5q-74 0 -118 40.5t-44 109.5q0 88 77.5 137.5t220.5 49.5h57v5q0 89 -31.5 123.5
t-113.5 34.5q-97 0 -175 -46l-12 38q84 48 187 48zM99 142q0 -52 33.5 -83t90.5 -31q75 0 130 55.5t55 138.5v67h-57q-121 0 -186.5 -39t-65.5 -108z" />
    <glyph glyph-name="atilde" unicode="&#xe3;" horiz-adv-x="537" 
d="M282 674q57 -40 87 -40q39 0 39 76h42q0 -115 -74 -115q-42 0 -110 47q-56 39 -86 39q-39 0 -39 -86h-41q0 125 73 125q43 0 109 -46zM263 530q104 0 148 -44.5t44 -152.5v-193q0 -70 15 -140h-46q-9 46 -11 103h-2q-27 -52 -78.5 -82.5t-117.5 -30.5q-74 0 -118 40.5
t-44 109.5q0 88 77.5 137.5t220.5 49.5h57v5q0 89 -31.5 123.5t-113.5 34.5q-97 0 -175 -46l-12 38q84 48 187 48zM99 142q0 -52 33.5 -83t90.5 -31q75 0 130 55.5t55 138.5v67h-57q-121 0 -186.5 -39t-65.5 -108z" />
    <glyph glyph-name="adieresis" unicode="&#xe4;" horiz-adv-x="537" 
d="M351 610v123h47v-123h-47zM151 610v123h47v-123h-47zM263 530q104 0 148 -44.5t44 -152.5v-193q0 -70 15 -140h-46q-9 46 -11 103h-2q-27 -52 -78.5 -82.5t-117.5 -30.5q-74 0 -118 40.5t-44 109.5q0 88 77.5 137.5t220.5 49.5h57v5q0 89 -31.5 123.5t-113.5 34.5
q-97 0 -175 -46l-12 38q84 48 187 48zM99 142q0 -52 33.5 -83t90.5 -31q75 0 130 55.5t55 138.5v67h-57q-121 0 -186.5 -39t-65.5 -108z" />
    <glyph glyph-name="aring" unicode="&#xe5;" horiz-adv-x="537" 
d="M275 758q-35 0 -59.5 -24.5t-24.5 -58.5t24.5 -58.5t59.5 -24.5t59 24t24 59t-24 59t-59 24zM263 530q104 0 148 -44.5t44 -152.5v-193q0 -70 15 -140h-46q-9 46 -11 103h-2q-27 -52 -78.5 -82.5t-117.5 -30.5q-74 0 -118 40.5t-44 109.5q0 88 77.5 137.5t220.5 49.5h57
v5q0 89 -31.5 123.5t-113.5 34.5q-97 0 -175 -46l-12 38q84 48 187 48zM391 675q0 -48 -34 -82.5t-82 -34.5t-82.5 34.5t-34.5 82.5t34.5 82.5t82.5 34.5t82 -34.5t34 -82.5zM99 142q0 -52 33.5 -83t90.5 -31q75 0 130 55.5t55 138.5v67h-57q-121 0 -186.5 -39t-65.5 -108z
" />
    <glyph glyph-name="ae" unicode="&#xe6;" horiz-adv-x="882" 
d="M456 283h333q-1 101 -43.5 154.5t-119.5 53.5t-122 -54.5t-48 -153.5zM456 243q1 -98 51.5 -156t132.5 -58q78 0 149 42l16 -37q-78 -44 -169 -44q-72 0 -125 38t-79 106q-51 -144 -217 -144q-74 0 -118 40.5t-44 109.5q0 80 79 133.5t219 53.5h59v2q-3 96 -35.5 128.5
t-111.5 32.5q-97 0 -175 -46l-12 38q84 48 187 48q79 0 122 -25.5t59 -84.5q56 110 182 110q100 0 154.5 -68.5t54.5 -196.5q0 -3 -0.5 -11t-0.5 -11h-378zM99 142q0 -52 33.5 -83t90.5 -31q91 0 139.5 60.5t48.5 176.5q0 1 -0.5 12t-0.5 12h-59q-117 0 -184.5 -42.5
t-67.5 -104.5z" />
    <glyph glyph-name="ccedilla" unicode="&#xe7;" horiz-adv-x="514" 
d="M432 63l14 -38q-45 -23 -94 -31q37 -47 37 -97q0 -48 -39 -82.5t-131 -34.5q-65 0 -120 25l9 39q48 -24 107 -24q127 0 127 86q0 44 -35 84h-9q-114 0 -184.5 74t-70.5 196q0 126 68 198t187 72q78 0 148 -35l-14 -39q-63 33 -132 33q-98 0 -153.5 -60.5t-55.5 -168.5
q0 -104 58 -167t151 -63q69 0 132 33z" />
    <glyph glyph-name="egrave" unicode="&#xe8;" horiz-adv-x="544" 
d="M235 753l117 -163h-50l-130 163h63zM90 243q1 -100 55.5 -157t145.5 -57q83 0 157 42l15 -37q-81 -44 -175 -44q-112 0 -178.5 72.5t-66.5 197.5q0 126 63 198t172 72q104 0 161 -69t57 -196v-22h-406zM91 283h359q-2 101 -46.5 154.5t-125.5 53.5q-86 0 -135 -54.5
t-52 -153.5z" />
    <glyph glyph-name="eacute" unicode="&#xe9;" horiz-adv-x="544" 
d="M258 590h-50l116 163h64zM90 243q1 -100 55.5 -157t145.5 -57q83 0 157 42l15 -37q-81 -44 -175 -44q-112 0 -178.5 72.5t-66.5 197.5q0 126 63 198t172 72q104 0 161 -69t57 -196v-22h-406zM91 283h359q-2 101 -46.5 154.5t-125.5 53.5q-86 0 -135 -54.5t-52 -153.5z
" />
    <glyph glyph-name="ecircumflex" unicode="&#xea;" horiz-adv-x="544" 
d="M279 729l-119 -139h-59l144 163h70l143 -163h-59l-118 139h-2zM90 243q1 -100 55.5 -157t145.5 -57q83 0 157 42l15 -37q-81 -44 -175 -44q-112 0 -178.5 72.5t-66.5 197.5q0 126 63 198t172 72q104 0 161 -69t57 -196v-22h-406zM91 283h359q-2 101 -46.5 154.5
t-125.5 53.5q-86 0 -135 -54.5t-52 -153.5z" />
    <glyph glyph-name="edieresis" unicode="&#xeb;" horiz-adv-x="544" 
d="M356 610v123h47v-123h-47zM156 610v123h47v-123h-47zM90 243q1 -100 55.5 -157t145.5 -57q83 0 157 42l15 -37q-81 -44 -175 -44q-112 0 -178.5 72.5t-66.5 197.5q0 126 63 198t172 72q104 0 161 -69t57 -196v-22h-406zM91 283h359q-2 101 -46.5 154.5t-125.5 53.5
q-86 0 -135 -54.5t-52 -153.5z" />
    <glyph glyph-name="igrave" unicode="&#xec;" horiz-adv-x="300" 
d="M60 753l117 -163h-50l-130 163h63zM128 0v520h49v-520h-49z" />
    <glyph glyph-name="iacute" unicode="&#xed;" horiz-adv-x="300" 
d="M173 590h-50l117 163h63zM123 0v520h49v-520h-49z" />
    <glyph glyph-name="icircumflex" unicode="&#xee;" horiz-adv-x="294" 
d="M148 729h-2l-118 -139h-59l143 163h70l144 -163h-59zM123 0v520h49v-520h-49z" />
    <glyph glyph-name="idieresis" unicode="&#xef;" horiz-adv-x="294" 
d="M224 610v123h47v-123h-47zM24 610v123h47v-123h-47zM123 0v520h49v-520h-49z" />
    <glyph glyph-name="eth" unicode="&#xf0;" horiz-adv-x="550" 
d="M275 30q71 0 126 63t55 167q0 107 -48.5 167.5t-132.5 60.5t-132 -60.5t-48 -167.5q0 -106 52.5 -168t127.5 -62zM275 -10q-97 0 -162 73.5t-65 196.5q0 121 61.5 194t165.5 73q90 0 147 -63l2 1q-35 98 -108 159l-180 -80l-15 34l160 71q-63 39 -146 51l12 40
q105 -15 182 -71l141 63l14 -34l-124 -54q143 -131 143 -384q0 -122 -67 -196t-161 -74z" />
    <glyph glyph-name="ntilde" unicode="&#xf1;" horiz-adv-x="557" 
d="M176 720q44 0 110 -46q57 -40 86 -40q39 0 39 76h42q0 -115 -73 -115q-43 0 -111 47q-56 39 -85 39q-39 0 -39 -86h-42q0 125 73 125zM296 489q-66 0 -118.5 -63t-52.5 -149v-277h-47v520h45l1 -110h2q27 55 75.5 87.5t106.5 32.5q91 0 134 -53t43 -170v-307h-46v303
q0 102 -32.5 144t-110.5 42z" />
    <glyph glyph-name="ograve" unicode="&#xf2;" horiz-adv-x="566" 
d="M208 753l117 -163h-50l-130 163h63zM283 490q-89 0 -141 -61.5t-52 -168.5t52 -168.5t141 -61.5t141 61.5t52 168.5t-52 168.5t-141 61.5zM283 -10q-110 0 -175 73t-65 197t65 197t175 73t175 -73t65 -197t-65 -197t-175 -73z" />
    <glyph glyph-name="oacute" unicode="&#xf3;" horiz-adv-x="566" 
d="M291 590h-50l117 163h63zM283 490q-89 0 -141 -61.5t-52 -168.5t52 -168.5t141 -61.5t141 61.5t52 168.5t-52 168.5t-141 61.5zM283 -10q-110 0 -175 73t-65 197t65 197t175 73t175 -73t65 -197t-65 -197t-175 -73z" />
    <glyph glyph-name="ocircumflex" unicode="&#xf4;" horiz-adv-x="566" 
d="M282 729l-118 -139h-59l143 163h70l143 -163h-59l-118 139h-2zM283 490q-89 0 -141 -61.5t-52 -168.5t52 -168.5t141 -61.5t141 61.5t52 168.5t-52 168.5t-141 61.5zM283 -10q-110 0 -175 73t-65 197t65 197t175 73t175 -73t65 -197t-65 -197t-175 -73z" />
    <glyph glyph-name="otilde" unicode="&#xf5;" horiz-adv-x="566" 
d="M181 720q43 0 109 -46q57 -40 87 -40q39 0 39 76h42q0 -115 -73 -115q-43 0 -111 47q-56 39 -85 39q-39 0 -39 -86h-42q0 125 73 125zM283 490q-89 0 -141 -61.5t-52 -168.5t52 -168.5t141 -61.5t141 61.5t52 168.5t-52 168.5t-141 61.5zM283 -10q-110 0 -175 73t-65 197
t65 197t175 73t175 -73t65 -197t-65 -197t-175 -73z" />
    <glyph glyph-name="odieresis" unicode="&#xf6;" horiz-adv-x="566" 
d="M360 610v123h46v-123h-46zM160 610v123h46v-123h-46zM283 490q-89 0 -141 -61.5t-52 -168.5t52 -168.5t141 -61.5t141 61.5t52 168.5t-52 168.5t-141 61.5zM283 -10q-110 0 -175 73t-65 197t65 197t175 73t175 -73t65 -197t-65 -197t-175 -73z" />
    <glyph glyph-name="divide" unicode="&#xf7;" horiz-adv-x="732" 
d="M340 0v123h53v-123h-53zM340 457v123h53v-123h-53zM83 269v42h567v-42h-567z" />
    <glyph glyph-name="oslash" unicode="&#xf8;" horiz-adv-x="576" 
d="M48 260q0 124 65 197t175 73q85 0 144 -44l41 55l30 -22l-43 -58q68 -73 68 -201q0 -124 -65 -197t-175 -73q-85 0 -144 44l-41 -55l-30 22l43 58q-68 73 -68 201zM170 69q46 -39 118 -39q89 0 141 61.5t52 168.5q0 102 -49 164zM144 96l262 355q-46 39 -118 39
q-89 0 -141 -61.5t-52 -168.5q0 -102 49 -164z" />
    <glyph glyph-name="ugrave" unicode="&#xf9;" horiz-adv-x="547" 
d="M232 753l116 -163h-50l-130 163h64zM119 520v-327q0 -89 30 -125.5t102 -36.5q64 0 118 62.5t54 149.5v277h47v-520h-45l-1 110h-2q-27 -55 -75.5 -87.5t-106.5 -32.5q-87 0 -127 47t-40 153v330h46z" />
    <glyph glyph-name="uacute" unicode="&#xfa;" horiz-adv-x="547" 
d="M254 590h-50l117 163h63zM119 520v-327q0 -89 30 -125.5t102 -36.5q64 0 118 62.5t54 149.5v277h47v-520h-45l-1 110h-2q-27 -55 -75.5 -87.5t-106.5 -32.5q-87 0 -127 47t-40 153v330h46z" />
    <glyph glyph-name="ucircumflex" unicode="&#xfb;" horiz-adv-x="547" 
d="M157 590h-59l143 163h70l144 -163h-59l-119 139h-2zM119 520v-327q0 -89 30 -125.5t102 -36.5q64 0 118 62.5t54 149.5v277h47v-520h-45l-1 110h-2q-27 -55 -75.5 -87.5t-106.5 -32.5q-87 0 -127 47t-40 153v330h46z" />
    <glyph glyph-name="udieresis" unicode="&#xfc;" horiz-adv-x="547" 
d="M353 610v123h47v-123h-47zM153 610v123h47v-123h-47zM119 520v-327q0 -89 30 -125.5t102 -36.5q64 0 118 62.5t54 149.5v277h47v-520h-45l-1 110h-2q-27 -55 -75.5 -87.5t-106.5 -32.5q-87 0 -127 47t-40 153v330h46z" />
    <glyph glyph-name="yacute" unicode="&#xfd;" horiz-adv-x="557" 
d="M254 590h-50l117 163h63zM98 520l189 -463h2l180 463h51l-208 -519q-52 -132 -111 -181.5t-156 -49.5l-2 41q80 0 128.5 40t92.5 149l-218 520h52z" />
    <glyph glyph-name="thorn" unicode="&#xfe;" horiz-adv-x="562" 
d="M127 98h-2v-318h-47v970h47v-331h2q51 111 178 111q98 0 154 -71t56 -199q0 -127 -57 -198.5t-153 -71.5q-127 0 -178 108zM469 260q0 109 -46.5 169.5t-126.5 60.5q-77 0 -124 -59.5t-47 -162.5v-16q0 -105 48 -163.5t123 -58.5q80 0 126.5 60.5t46.5 169.5z" />
    <glyph glyph-name="ydieresis" unicode="&#xff;" horiz-adv-x="557" 
d="M353 610v123h47v-123h-47zM153 610v123h47v-123h-47zM98 520l189 -463h2l180 463h51l-208 -519q-52 -132 -111 -181.5t-156 -49.5l-2 41q80 0 128.5 40t92.5 149l-218 520h52z" />
    <glyph glyph-name="Iogonek" unicode="&#x12e;" horiz-adv-x="299" 
d="M161 0q-95 -54 -95 -119q0 -61 97 -61q51 0 92 19l9 -38q-48 -21 -105 -21q-76 0 -107.5 26.5t-31.5 65.5q0 80 102 148v710h54v-730h-15z" />
    <glyph glyph-name="obreve" unicode="&#x14f;" horiz-adv-x="566" 
d="M283 633q57 0 94.5 28.5t38.5 66.5h42q0 -55 -50 -94t-125 -39t-125 39t-50 94h42q1 -38 38.5 -66.5t94.5 -28.5zM283 490q-89 0 -141 -61.5t-52 -168.5t52 -168.5t141 -61.5t141 61.5t52 168.5t-52 168.5t-141 61.5zM283 -10q-110 0 -175 73t-65 197t65 197t175 73
t175 -73t65 -197t-65 -197t-175 -73z" />
    <glyph glyph-name="Ohungarumlaut" unicode="&#x150;" horiz-adv-x="792" 
d="M486 790h-47l117 163h60zM319 790h-46l116 163h60zM396 697q-136 0 -219 -91t-83 -241t83 -241t219 -91t219.5 91t83.5 241t-83.5 241t-219.5 91zM396 -10q-159 0 -256 103t-97 272t97 272t256 103t256.5 -103t97.5 -272t-97.5 -272t-256.5 -103z" />
    <glyph glyph-name="OE" unicode="&#x152;" horiz-adv-x="861" 
d="M458 730h325v-43h-305v-270h285v-42h-285v-332h305v-43h-325q-37 -10 -84 -10q-149 0 -240 103t-91 272t91 272t240 103q47 0 84 -10zM430 39v652q-27 6 -56 6q-126 0 -203 -91t-77 -241t77 -241t203 -91q29 0 56 6z" />
    <glyph glyph-name="oe" unicode="&#x153;" horiz-adv-x="914" 
d="M43 260q0 124 62 197t165 73q67 0 117.5 -35.5t76.5 -100.5q25 65 75 100.5t119 35.5q100 0 154 -68t54 -197v-22h-378q1 -98 51 -156t132 -58q79 0 150 42l16 -37q-78 -44 -169 -44q-70 0 -123.5 36.5t-79.5 102.5q-26 -66 -76.5 -102.5t-118.5 -36.5q-103 0 -165 73
t-62 197zM488 283h332q-1 101 -43 154.5t-119 53.5t-122 -54.5t-48 -153.5zM442 260q0 106 -47 168t-125 62q-83 0 -131.5 -61t-48.5 -169t48.5 -169t131.5 -61q78 0 125 62t47 168z" />
    <glyph glyph-name="Scaron" unicode="&#x160;" horiz-adv-x="562" 
d="M284 814l118 139h59l-143 -163h-70l-143 163h59l118 -139h2zM70 570q0 77 55.5 123.5t155.5 46.5q112 0 205 -48l-14 -40q-84 45 -191 45q-77 0 -119.5 -33.5t-42.5 -93.5q0 -110 163 -160q116 -35 167 -88t51 -137q0 -94 -57.5 -144.5t-164.5 -50.5q-122 0 -215 67
l18 40q86 -64 197 -64q84 0 128 39t44 113q0 67 -39.5 108.5t-132.5 70.5q-208 62 -208 206z" />
    <glyph glyph-name="scaron" unicode="&#x161;" horiz-adv-x="489" 
d="M420 753l-144 -163h-70l-143 163h59l118 -139h2l119 139h59zM58 395q0 61 49 98t134 37q91 0 174 -40l-13 -39q-78 39 -161 39q-64 0 -100 -25.5t-36 -69.5q0 -40 29.5 -65t109.5 -40q99 -18 143 -55.5t44 -101.5q0 -66 -50.5 -104.5t-139.5 -38.5q-98 0 -183 50l14 38
q79 -48 169 -48q67 0 105 27.5t38 75.5q0 46 -33.5 72.5t-112.5 41.5q-96 17 -138 52t-42 96z" />
    <glyph glyph-name="Ydieresis" unicode="&#x178;" horiz-adv-x="656" 
d="M405 810v123h46v-123h-46zM205 810v123h46v-123h-46zM92 730l236 -368h2l235 368h58l-269 -412v-318h-52v318l-269 412h59z" />
    <glyph glyph-name="zacute" unicode="&#x17a;" horiz-adv-x="539" 
d="M314 753h64l-130 -163h-50zM402 478v2h-324v40h383v-40l-324 -438v-2h324v-40h-383v40z" />
    <glyph glyph-name="Zcaron" unicode="&#x17d;" horiz-adv-x="629" 
d="M316 814l118 139h59l-143 -163h-70l-144 163h59l119 -139h2zM492 685v2h-414v43h473v-43l-414 -642v-2h414v-43h-473v43z" />
    <glyph glyph-name="zcaron" unicode="&#x17e;" horiz-adv-x="539" 
d="M271 614l118 139h59l-143 -163h-70l-144 163h59l119 -139h2zM402 478v2h-324v40h383v-40l-324 -438v-2h324v-40h-383v40z" />
    <glyph glyph-name="florin" unicode="&#x192;" horiz-adv-x="514" 
d="M202 -68v528h-144v40h144v78q0 83 37.5 122.5t115.5 39.5q45 0 87 -15l-12 -39q-34 14 -72 14q-59 0 -84 -28t-25 -94v-78h189v-40h-189v-528q0 -84 -37 -123t-116 -39q-45 0 -87 15l12 39q34 -14 71 -14q59 0 84.5 28t25.5 94z" />
    <glyph glyph-name="uni0197" unicode="&#x197;" horiz-adv-x="542" 
d="M58 270v40h187v420h53v-420h187v-40h-187v-270h-53v270h-187z" />
    <glyph glyph-name="circumflex" unicode="&#x2c6;" horiz-adv-x="442" 
d="M220 729l-118 -139h-59l143 163h70l144 -163h-59l-119 139h-2z" />
    <glyph glyph-name="uni02CC" unicode="&#x2cc;" horiz-adv-x="326" 
d="M138 -220v273h50v-273h-50z" />
    <glyph glyph-name="uni02CD" unicode="&#x2cd;" horiz-adv-x="459" 
d="M63 -177v40h333v-40h-333z" />
    <glyph glyph-name="tilde" unicode="&#x2dc;" horiz-adv-x="476" 
d="M136 720q44 0 110 -46q57 -40 86 -40q39 0 39 76h42q0 -115 -73 -115q-43 0 -111 47q-56 39 -85 39q-39 0 -39 -86h-42q0 125 73 125z" />
    <glyph glyph-name="uni02DF" unicode="&#x2df;" horiz-adv-x="382" 
d="M89 825l103 -103l103 103l29 -30l-103 -103l103 -103l-30 -31l-103 104l-104 -104l-29 30l103 103l-103 103z" />
    <glyph glyph-name="uni02E0" unicode="&#x2e0;" horiz-adv-x="380" 
d="M342 604l-131 -249q53 -92 53 -132q0 -32 -19.5 -50.5t-54.5 -18.5q-34 0 -53.5 18.5t-19.5 50.5q0 42 52 132l-131 249h43l109 -215l110 215h42zM190 184q40 0 40 39q0 30 -40 101q-40 -71 -40 -101q0 -39 40 -39z" />
    <glyph glyph-name="uni02E1" unicode="&#x2e1;" horiz-adv-x="276" 
d="M118 292v450h41v-450h-41z" />
    <glyph glyph-name="uni02E2" unicode="&#x2e2;" horiz-adv-x="336" 
d="M164 319q38 0 59 14.5t21 40.5q0 25 -18.5 39t-62.5 23q-59 11 -84 32.5t-25 59.5q0 37 30 59.5t83 22.5q56 0 109 -23l-12 -31q-46 21 -95 21q-76 0 -76 -49q0 -22 16 -36.5t60 -22.5q61 -11 88 -34t27 -62q0 -40 -31 -63.5t-86 -23.5q-61 0 -114 30l13 30
q45 -27 98 -27z" />
    <glyph glyph-name="uni02E3" unicode="&#x2e3;" horiz-adv-x="364" 
d="M270 604h45l-107 -155l108 -157h-45l-89 132h-1l-89 -132h-44l109 157l-107 155h44l88 -130h1z" />
    <glyph glyph-name="uni02E4" unicode="&#x2e4;" horiz-adv-x="370" 
d="M179 292v204q-126 18 -126 122q0 54 39 86t106 32t130 -37l-14 -32q-55 33 -112 33q-52 0 -80.5 -21.5t-28.5 -60.5q0 -89 127 -92v-234h-41z" />
    <glyph glyph-name="uni03D8" unicode="&#x3d8;" horiz-adv-x="792" 
d="M43 365q0 169 97 272t256 103t256.5 -103t97.5 -272q0 -162 -90 -264t-240 -110v-211h-47v211q-150 8 -240 110t-90 264zM396 33q136 0 219.5 91t83.5 241t-83.5 241t-219.5 91t-219 -91t-83 -241t83 -241t219 -91z" />
    <glyph glyph-name="uni03FD" unicode="&#x3fd;" horiz-adv-x="691" 
d="M288 697q-111 0 -201 -60l-19 39q95 64 223 64q164 0 260.5 -101t96.5 -274q0 -171 -97.5 -273t-259.5 -102q-128 0 -223 64l19 39q92 -60 201 -60q139 0 224 90.5t85 241.5q0 152 -83.5 242t-225.5 90z" />
    <glyph glyph-name="endash" unicode="&#x2013;" horiz-adv-x="471" 
d="M-2 272v36h475v-36h-475z" />
    <glyph glyph-name="emdash" unicode="&#x2014;" horiz-adv-x="946" 
d="M-2 272v36h950v-36h-950z" />
    <glyph glyph-name="quoteleft" unicode="&#x2018;" horiz-adv-x="258" 
d="M109 537h-61l90 233h48z" />
    <glyph glyph-name="quoteright" unicode="&#x2019;" horiz-adv-x="258" 
d="M211 770l-90 -233h-48l77 233h61z" />
    <glyph glyph-name="quotesinglbase" unicode="&#x201a;" horiz-adv-x="273" 
d="M140 123h61l-90 -233h-48z" />
    <glyph glyph-name="quotedblleft" unicode="&#x201c;" horiz-adv-x="417" 
d="M350 770l-77 -233h-58l90 233h45zM101 537h-58l90 233h44z" />
    <glyph glyph-name="quotedblright" unicode="&#x201d;" horiz-adv-x="417" 
d="M285 537h-45l77 233h58zM112 537h-44l77 233h57z" />
    <glyph glyph-name="quotedblbase" unicode="&#x201e;" horiz-adv-x="432" 
d="M275 -110h-45l77 233h58zM102 -110h-44l77 233h57z" />
    <glyph glyph-name="dagger" unicode="&#x2020;" horiz-adv-x="552" 
d="M490 520v-40h-190v-593h-47v593h-190v40h190v210h47v-210h190z" />
    <glyph glyph-name="daggerdbl" unicode="&#x2021;" horiz-adv-x="572" 
d="M500 480h-190v-257h190v-40h-190v-296h-47v296h-190v40h190v257h-190v40h190v210h47v-210h190v-40z" />
    <glyph glyph-name="bullet" unicode="&#x2022;" horiz-adv-x="429" 
d="M215 278q-36 0 -61.5 25.5t-25.5 61.5t25.5 61.5t61.5 25.5t61 -25.5t25 -61.5t-25 -61.5t-61 -25.5z" />
    <glyph glyph-name="ellipsis" unicode="&#x2026;" horiz-adv-x="1000" 
d="M805 295v130h56v-130h-56zM472 295v130h56v-130h-56zM139 295v130h56v-130h-56z" />
    <glyph glyph-name="perthousand" unicode="&#x2030;" horiz-adv-x="1046" 
d="M704 178q0 89 39.5 139t110.5 50q70 0 109.5 -50t39.5 -139t-39 -138.5t-110 -49.5t-110.5 49.5t-39.5 138.5zM374 178q0 89 39.5 139t110.5 50q70 0 109.5 -50t39.5 -139t-39 -138.5t-110 -49.5t-110.5 49.5t-39.5 138.5zM529 730h46l-388 -730h-46zM43 552
q0 89 39 138.5t110 49.5t110.5 -49.5t39.5 -138.5t-39.5 -139t-110.5 -50q-70 0 -109.5 50t-39.5 139zM854 30q50 0 77 38t27 110t-27 110.5t-77 38.5t-77.5 -38.5t-27.5 -110.5t27.5 -110t77.5 -38zM524 30q50 0 77 38t27 110t-27 110.5t-77 38.5t-77.5 -38.5t-27.5 -110.5
t27.5 -110t77.5 -38zM192 403q50 0 77.5 38.5t27.5 110.5t-27.5 110t-77.5 38t-77 -38t-27 -110t27 -110.5t77 -38.5z" />
    <glyph glyph-name="guilsinglleft" unicode="&#x2039;" horiz-adv-x="368" 
d="M281 83h-53l-160 207l160 207h53l-161 -207z" />
    <glyph glyph-name="guilsinglright" unicode="&#x203a;" horiz-adv-x="368" 
d="M88 83l161 207l-161 207h53l160 -207l-160 -207h-53z" />
    <glyph glyph-name="Euro" unicode="&#x20ac;" horiz-adv-x="750" 
d="M53 263v37h81q-4 28 -4 65q0 23 4 65h-81v37h87q25 129 110.5 201t216.5 72q120 0 211 -64l-19 -39q-85 60 -189 60q-109 0 -182.5 -61t-97.5 -169h401v-37h-408q-4 -28 -4 -65q0 -30 5 -65h407v-37h-401q25 -108 99 -169t181 -61q104 0 189 60l19 -39q-91 -64 -211 -64
q-128 0 -214.5 73t-112.5 200h-87z" />
    <glyph glyph-name="trademark" unicode="&#x2122;" horiz-adv-x="856" 
d="M706 670h-1l-89 -305h-40l-89 305h-1l-36 -305h-36l46 365h44l92 -319h1l92 319h43l47 -365h-37zM385 730v-33h-142v-332h-37v332h-143v33h322z" />
  </font>
</defs>
</svg>
